#TITLE:Red Alert;
#SUBTITLE:;
#ARTIST:Basement Jaxx;
#TITLETRANSLIT:;
#SUBTITLETRANSLIT:;
#ARTISTTRANSLIT:;
#CREDIT:;
#BANNER:;
#BACKGROUND:red alert-bg.png;
#LYRICSPATH:;
#CDTITLE:;
#MUSIC:red alert.mp3;
#MUSICLENGTH:102.974;
#OFFSET:-0.350;
#SAMPLESTART:8.400;
#SAMPLELENGTH:12.000;
#SELECTABLE:YES;
#BPMS:0.000=126.600;
#STOPS:;
#BGCHANGES:;
#FIRSTBEAT:17.000;

#LASTBEAT:214.000;

#SONGFILENAME:Songs/EXTRA/Red Alert/redalert.sm;

#HASMUSIC:1;

#HASBANNER:0;


//---------------dance-single - BASIC----------------
#NOTES:
     dance-single:
     BASIC:
     easy:
     4:
     0.223,0.207,0.000,0.000,0.000,161.000,0.000,0.000,0.000,0.000:  // measure 1
0000
0000
0000
0000
,  // measure 2
0000
0000
0000
0000
,  // measure 3
0000
0000
0000
0000
,  // measure 4
0000
0000
0000
0000
,  // measure 5
0000
0010
0010
0010
,  // measure 6
1000
0001
0000
0000
,  // measure 7
0000
0100
0100
0100
,  // measure 8
1000
0000
0001
0000
0000
0000
0001
0001
,  // measure 9
0001
1000
1000
1000
,  // measure 10
0010
0100
0000
0000
,  // measure 11
0000
0001
0001
0001
,  // measure 12
0010
0000
0100
0000
0000
0000
0100
0100
,  // measure 13
0100
0010
0010
0010
,  // measure 14
1000
0001
0000
0000
,  // measure 15
0000
0100
0100
0100
,  // measure 16
1000
0000
0001
0000
0000
0000
0001
0001
,  // measure 17
0001
1000
1000
1000
,  // measure 18
0010
0100
0000
0000
,  // measure 19
0000
0001
0001
0001
,  // measure 20
0010
0000
0100
0000
0000
0000
0100
0100
,  // measure 21
0100
0010
0010
0010
,  // measure 22
1000
0001
0000
0000
,  // measure 23
0000
0100
0100
0100
,  // measure 24
1000
0000
0001
0000
0000
0000
0001
0001
,  // measure 25
0001
1000
1000
1000
,  // measure 26
0010
0100
0000
0000
,  // measure 27
0000
0001
0001
0001
,  // measure 28
0010
0000
0100
0000
0000
0000
0100
0100
,  // measure 29
0100
0010
0010
0010
,  // measure 30
1000
0001
0000
0000
,  // measure 31
0000
0100
0100
0100
,  // measure 32
1000
0000
0001
0000
0000
0000
0001
0001
,  // measure 33
0001
1000
1000
1000
,  // measure 34
0010
0100
0000
0000
,  // measure 35
0000
0001
0001
0001
,  // measure 36
0010
0000
0100
0000
0000
0000
0100
0100
,  // measure 37
0100
0010
0010
0010
,  // measure 38
1000
0001
0000
0000
,  // measure 39
0000
0100
0100
0100
,  // measure 40
1000
0000
0001
0000
0000
0000
0001
0001
,  // measure 41
0001
1000
1000
1000
,  // measure 42
0010
0100
0000
0000
,  // measure 43
0000
0001
0001
0001
,  // measure 44
0010
0000
0100
0000
0000
0000
0100
0100
,  // measure 45
0100
0010
0010
0010
,  // measure 46
1000
0001
0000
0000
,  // measure 47
0000
0100
0100
0100
,  // measure 48
1000
0000
0001
0000
0000
0000
0001
0001
,  // measure 49
0001
1000
1000
1000
,  // measure 50
0010
0100
0000
0000
,  // measure 51
0000
0001
0001
0001
,  // measure 52
0010
0000
0100
0000
0000
0000
0100
0100
,  // measure 53
0100
1000
0001
1000
,  // measure 54
0001
1000
0000
0000
;

//---------------dance-single - ANOTHER----------------
#NOTES:
     dance-single:
     ANOTHER:
     medium:
     5:
     0.343,0.312,0.388,0.000,0.000,207.000,40.000,0.000,0.000,0.000:  // measure 1
0000
0000
0000
0000
,  // measure 2
0000
0000
0000
0000
,  // measure 3
0000
0000
0000
0000
,  // measure 4
0000
0000
0000
0000
,  // measure 5
0000
0000
0010
0100
0010
0000
0100
0000
,  // measure 6
1100
0000
0011
0000
0000
0000
0010
0100
,  // measure 7
0010
0000
0100
0010
0100
0000
0010
0000
,  // measure 8
0011
0000
1100
0000
0000
0000
0100
0010
,  // measure 9
0100
0000
1000
0001
1000
0000
0001
0000
,  // measure 10
0101
0000
1010
0000
0000
0000
1000
0001
,  // measure 11
1000
0000
0001
1000
0001
0000
1000
0000
,  // measure 12
1010
0000
0101
0000
0000
0000
0001
1000
,  // measure 13
0001
0000
0010
1000
0100
0001
0100
0000
,  // measure 14
0011
1100
0000
0000
,  // measure 15
0000
0000
0010
0001
0100
1000
0100
0000
,  // measure 16
1010
0101
0000
0000
,  // measure 17
0000
0000
1000
0100
0001
0100
1000
0000
,  // measure 18
1100
0101
0000
0000
,  // measure 19
0000
0000
1000
0010
0001
0010
1000
0000
,  // measure 20
1010
0011
0000
0000
,  // measure 21
0000
0000
0010
0100
0010
0000
0100
0000
,  // measure 22
1100
0000
0011
0000
0000
0000
0010
0100
,  // measure 23
0010
0000
0100
0010
0100
0000
0010
0000
,  // measure 24
0011
0000
1100
0000
0000
0000
0100
0010
,  // measure 25
0100
0000
1000
0001
1000
0000
0001
0000
,  // measure 26
0101
0000
1010
0000
0000
0000
1000
0001
,  // measure 27
1000
0000
0001
1000
0001
0000
1000
0000
,  // measure 28
1010
0000
0101
0000
0000
0000
0001
1000
,  // measure 29
0001
0000
0010
1000
0100
0001
0100
0000
,  // measure 30
0011
1100
0000
0000
,  // measure 31
0000
0000
0010
0001
0100
1000
0100
0000
,  // measure 32
1010
0101
0000
0000
,  // measure 33
0000
0000
1000
0100
0001
0100
1000
0000
,  // measure 34
1100
0101
0000
0000
,  // measure 35
0000
0000
1000
0010
0001
0010
1000
0000
,  // measure 36
1010
0011
0000
0000
,  // measure 37
0000
0000
0010
0100
0010
0000
0100
0000
,  // measure 38
1100
0000
0011
0000
0000
0000
0010
0100
,  // measure 39
0010
0000
0100
0010
0100
0000
0010
0000
,  // measure 40
0011
0000
1100
0000
0000
0000
0100
0010
,  // measure 41
0100
0000
1000
0001
1000
0000
0001
0000
,  // measure 42
0101
0000
1010
0000
0000
0000
1000
0001
,  // measure 43
1000
0000
0001
1000
0001
0000
1000
0000
,  // measure 44
1010
0000
0101
0000
0000
0000
0001
1000
,  // measure 45
0001
1000
1000
1000
,  // measure 46
1000
0001
0001
0001
,  // measure 47
0001
0100
0100
0100
,  // measure 48
0100
0010
0010
0010
,  // measure 49
0010
1000
1000
1000
,  // measure 50
1000
0001
0001
0001
,  // measure 51
0001
0100
0100
0100
,  // measure 52
0100
0010
0010
0010
,  // measure 53
0010
0000
1000
0100
1000
0100
0010
0001
,  // measure 54
0010
0001
1000
0100
0001
0000
0000
0000
;

//---------------dance-single - MANIAC----------------
#NOTES:
     dance-single:
     MANIAC:
     hard:
     7:
     0.406,0.440,0.214,0.000,0.078,271.000,22.000,0.000,0.000,0.000:  // measure 1
0000
0000
0000
0000
,  // measure 2
0000
0000
0000
0000
,  // measure 3
0000
0000
0000
0000
,  // measure 4
0000
0000
0000
0000
,  // measure 5
0000
0000
0000
0000
1000
0000
0100
0000
0100
1000
0000
0001
0000
0000
0000
0000
,  // measure 6
1010
0000
0101
0000
0000
0000
0100
0001
,  // measure 7
0100
0000
0000
0000
0010
0000
0001
0000
0001
0010
0000
1000
0000
0000
0000
0000
,  // measure 8
0011
0000
1100
0000
0000
0000
0100
1000
,  // measure 9
0100
0000
0000
0000
1000
0000
0001
0000
0001
1000
0000
0100
0000
0000
0000
0000
,  // measure 10
1100
0000
0101
0000
0000
0000
1000
0100
,  // measure 11
0001
0000
0000
0000
0010
0000
0100
0000
0100
0010
0000
1000
0000
0000
0000
0000
,  // measure 12
1010
0000
0011
0000
0000
0000
1000
0010
,  // measure 13
0001
0000
0010
1000
0100
0000
0010
0001
,  // measure 14
0100
0000
1000
0100
0001
0000
0001
0100
,  // measure 15
1000
0000
0100
1000
0010
0000
0100
0001
,  // measure 16
0010
0000
1000
0010
0001
0000
0001
0010
,  // measure 17
1000
0000
0010
1000
0100
0000
0010
0001
,  // measure 18
0100
0000
1000
0100
0001
0000
0001
0100
,  // measure 19
1000
0000
0100
1000
0010
0000
0100
0001
,  // measure 20
0010
0000
1000
0010
0001
0000
0001
0010
,  // measure 21
1000
0000
0100
1000
0100
0010
0100
0001
,  // measure 22
0100
0010
0100
1000
0100
0010
0100
0001
,  // measure 23
0100
0010
0100
1000
0100
1000
0100
1000
,  // measure 24
0100
1000
0010
0001
0010
0001
0010
0001
,  // measure 25
0010
0001
0010
0001
0010
0001
0010
0001
,  // measure 26
0010
0001
0010
1000
0010
0001
0010
1000
,  // measure 27
0010
0001
0010
1000
0010
0001
0010
1000
,  // measure 28
0010
0001
1000
0000
0000
0000
1001
0000
,  // measure 29
0000
0000
0000
0000
1000
0000
0100
0000
0100
1000
0000
0001
0000
0000
0000
0000
,  // measure 30
1010
0000
0101
0000
0000
0000
0100
0001
,  // measure 31
0100
0000
0000
0000
0010
0000
0001
0000
0001
0010
0000
1000
0000
0000
0000
0000
,  // measure 32
0011
0000
1100
0000
0000
0000
0100
1000
,  // measure 33
0100
0000
0000
0000
1000
0000
0001
0000
0001
1000
0000
0100
0000
0000
0000
0000
,  // measure 34
1100
0000
0101
0000
0000
0000
1000
0100
,  // measure 35
0001
0000
0000
0000
0010
0000
0100
0000
0100
0010
0000
1000
0000
0000
0000
0000
,  // measure 36
1010
0000
0011
0000
0000
0000
1000
0010
,  // measure 37
0001
1000
1000
1000
,  // measure 38
1000
0100
0100
0100
,  // measure 39
0100
0010
0010
0010
,  // measure 40
0010
0001
0001
0001
,  // measure 41
0001
1000
1000
1000
,  // measure 42
1000
0100
0100
0100
,  // measure 43
0100
0010
0010
0010
,  // measure 44
0010
0001
0001
0001
,  // measure 45
0001
0000
0010
1000
0100
0000
0010
0001
,  // measure 46
0100
0000
1000
0100
0001
0000
0001
0100
,  // measure 47
1000
0000
0100
1000
0010
0000
0100
0001
,  // measure 48
0010
0000
1000
0010
0001
0000
0001
0010
,  // measure 49
1000
0000
0010
1000
0100
0000
0010
0001
,  // measure 50
0100
0000
1000
0100
0001
0000
0001
0100
,  // measure 51
1000
0000
0100
1000
0010
0000
0100
0001
,  // measure 52
0010
0000
1000
0010
0001
0000
0001
0010
,  // measure 53
1000
0000
1001
0000
0000
1100
0101
0000
,  // measure 54
1010
0011
0000
0000
;
